наверх

Меню пользователя
ИнтЕресности
загрузка...
Если напрягает, нажмите кнопку "Выкл. звук"

» » Принесса с Луны

Название:

Принесса с Луны скачать торрент

Оригинальное:Taketori monogatari
Год выхода:1987
Жанр:Фантастика, Приключения, Драма, Фэнтези/Сказки, Зарубежные
Студия/Страна:Студия Toho Fuji Television, Япония
Режиссер:Кон Ичикава.
В ролях:Тосиро Мифунэ, Аяко Вакао, Ясуко Савагучи, Кодзи Исидзака, Киити Накаи, Koasa Shunputei, Такатоши Такеда, Мегуми Одака, Кацуо Накамура, Широ Ито, Fujio Tokita, Такэси Като, Кёко Кисида, Хирокадзу Ямагучи, Джун Хамамура
Длительность:121 мин
Перевод:Дублированный перевод (дубляж)
Рейтинг на сайте:
Рейтинг:
Пожилая бездетная пара находит маленькую девочку и начинает воспитывать её как собственную дочь. Конечно же они даже не подозревают, что их новый ребёнок — инопланетянка, попавшая на Землю после крушения космического корабля.

Скачать фильм Принесса с Луны (1987) через торрент

Загрузил: 30 января 2017 22:33 Статус: Не проверено
Размер: 502.36 MB [Как скачать?]
Раздают: 136 Качают: 120 Скачали: 105
Содержание:
file Принцесса с Луны.mp4 (502.36 MB)

Качество:DVDRip
Формат:MP4
Видео:XviD, 1 204 Kbps Width:656 pixels Height:336 pixels Bit rate: 1 204 Kbps
Звук:Audio#0: ID:1 Format:MPEG Audio Format version:Version 1 Format profile:Layer 3 Codec ID:55 Codec ID/Hint:MP3 Duration:2h 0mn Bit rate mode:Constant Bit rate:112 Kbps Channel(s):1 channel Sampling rate:48.0 KHz Compression mode:Lossy Stream size:96.9 MiB (8%) Alignment:Aligned on interleaves Interleave, duration:40 ms (1.00 video frame) Interleave, preload duration:504 ms Audio#1: ID:2 Format:MPEG Audio Format version:Version 1 Format profile:Layer 3 Codec ID:55 Codec ID/Hint:MP3 Duration:2h 0mn Bit rate mode:Constant Bit rate:96.0 Kbps Channel(s):2 channels Sampling rate:48.0 KHz Compression mode:Lossy Delay relative to video:24ms Stream size:83.0 MiB (7%) Alignment:Aligned on interleaves Interleave, duration:40 ms (1.00 video frame) Interleave, preload duration:504 ms
Начало раздачи:30 января 2017 в 22:09
Раздает:Скрыт
Друзья! Огромная просьба, оставляйте свои комментарии, если скачали фильм Принесса с Луны (1987) через торрент бесплатно! Внесите свою лепту в развитие сайта!
Похожие раздачи
Комментарии пользователей (1)
Nicolas Count
Пользователи
Nicolas Count
Автор
Фильм мы смотрели всей семьёй на одном дыхании.
Особо надо отметить замечательную работу актрисы Мегуми Одака, в роли Акено, и если начистоту, то из-за неё я и посмотрел фильм. В итоге остался доволен и фильмом, и сюжетом. 
Сама лунная принцесса, в исполнении актрис Михо Накано и Ясуко Савагути, в роли маленькой девочки и после взросления, принцессы соответственно. Отдельно хотелось бы отметить тот факт, что голоса актёров дубляжа подобраны профессионально.
Что даёт мне право думать, что всю работу по дубляжу выполнял «Мосфильм». Хотя это мог быть и «Ленфильм». Но не суть. Другой вопрос — в каком году это было сделано.Дракон, он же кайдзю Манда, отображён в духе Toho, что никак не преуменьшает интереса к нему, как к персонажу. Фильм повествует о редкости в наше время — чистые и непорочные чувства, не менее сильные по эмоциональному воздействию на зрителя. Действие разворачивается в 790 году (предположительно н. э.), во времена даймё. Что же до сюжета данного фильма, то тут есть своя философия: честность в мыслях и чувствах — главное, в нашей жизни, но к сожалению, сейчас этому уделяется мало внимания. Кроме того, так же есть и похожее аниме, по сути с тем же сюжетом, Должен отметить акцент, на семейных ценностях, достоинстве, чести, о которой судя по событиям этого времени, почти все успели забыть, о девичьей красоте, настоящей, а так же скромности. Всё всяком случае, именно такой мне воспринимается Кая, как персонаж фильма. Армен Джигарханян, в роли рассказчика, просто великолепен. Впрочем и немудрено: всё-таки озвучивали мастера своего дела, известные по своим ролям в советском кинематографе. Я не знаю, кто озвучивал женских персонажей, но  Армен Джигарханян хорошо справился с задачей. Впрочем, что ещё следует ожидать от великого актёра и просто талантливого человека? Правильно, очередных запоминающихся ролей как в кино, так и в озвучивании. Фильм, просто замечателен! По-своему, но всё же это не отменяет его художественной ценности. И полностью отвечает пословице: «Что имели — не храним, потерявши — плачем».
То есть мы не всегда, и не все ценим то, что имеем, а начинаем понимать ценность этого, когда, когда мы неизбежно скоро этого лишимся. И чем ближе это час — тем острее мы это ощущаем. Это и показывает нам фильм, снятый по мотивам известной легенды X столетия. 
И так для справки : 
В известном аниме «Наруто», есть целая арка серий-филлеров посвящённая тому, как Кагуя, прародительница чакры, пришла в этот мир, что перекликается с легендой о резчике бамбука, по которой снят этот фильм. 
Там один из её сыновей дал началу клану Хьюга, членами которого также являются Ханаби, Хината, ну и Неджи — гений клана Хьюга. Отголоски этой известны легенды, и отсылки к ней, имеются даже в таком аниме как «Наруто».
31 января 2017 21:11 Пользователь offline
Добавить комментарий
Полужирный Наклонный текст Подчеркнутый текст Зачеркнутый текст | Выравнивание по левому краю По центру Выравнивание по правому краю | Вставка смайликов Выбор цвета | Скрытый текст Вставка цитаты Преобразовать выбранный текст из транслитерации в кириллицу Вставка спойлера

Введите код с картинки:*

Включите эту картинку для отображения кода безопасности
Проверить правописание
Реклама
Топ 10
ИнтЕресности