наверх

Меню пользователя
ИнтЕресности

» » Caroline Polachek - Desire, I Want To Turn Into You

 Caroline Polachek - Desire, I Want To Turn Into You
Название:

Caroline Polachek - Desire, I Want To Turn Into You скачать торрент

Альбом:-
Год выхода:2023
Жанр:Electronic, Pop
Длительность:45 мин
Рейтинг на сайте:
Трек-лист:
01. Welcome To My Island (3:53)
02. Pretty In Possible (3:36)
03. Bunny Is A Rider (3:14)
04. Sunset (2:43)
05. Crude Drawing Of An Angel (3:29)
06. I Believe (4:07)
07. Fly To You (feat. Grimes and Dido) (4:05)
08. Blood And Butter (4:28)
09. Hopedrunk Everasking (3:19)
10. Butterfly Net (4:36)
11. Smoke (2:57)
12. Billions (4:58)
REM DATE 2023
REM DISCID 9C0AA40C
REM COMMENT "ExactAudioCopy v1.3"
CATALOG 0197187546381
PERFORMER "Caroline Polachek"
TITLE "Desire, I Want To Turn Into You"
REM COMPOSER ""
FILE "01 - Welcome To My Island.wav" WAVE
TRACK 01 AUDIO
TITLE "Welcome To My Island"
PERFORMER "Caroline Polachek"
REM COMPOSER ""
ISRC QMFME2219458
INDEX 01 00:00:00
FILE "02 - Pretty In Possible.wav" WAVE
TRACK 02 AUDIO
TITLE "Pretty In Possible"
PERFORMER "Caroline Polachek"
REM COMPOSER ""
ISRC QM4TW2363165
INDEX 01 00:00:00
FILE "03 - Bunny Is A Rider.wav" WAVE
TRACK 03 AUDIO
TITLE "Bunny Is A Rider"
PERFORMER "Caroline Polachek"
REM COMPOSER ""
ISRC QMBZ92173180
INDEX 01 00:00:00
FILE "04 - Sunset.wav" WAVE
TRACK 04 AUDIO
TITLE "Sunset"
PERFORMER "Caroline Polachek"
REM COMPOSER ""
ISRC QMDA62242370
INDEX 01 00:00:00
FILE "05 - Crude Drawing Of An Angel.wav" WAVE
TRACK 05 AUDIO
TITLE "Crude Drawing Of An Angel"
PERFORMER "Caroline Polachek"
REM COMPOSER ""
ISRC QM4TW2363167
INDEX 01 00:00:00
FILE "06 - I Believe.wav" WAVE
TRACK 06 AUDIO
TITLE "I Believe"
PERFORMER "Caroline Polachek"
REM COMPOSER ""
ISRC QM4TW2363169
INDEX 01 00:00:00
FILE "07 - Fly To You (feat. Grimes and Dido).wav" WAVE
TRACK 07 AUDIO
TITLE "Fly To You (feat. Grimes and Dido)"
PERFORMER "Caroline Polachek"
REM COMPOSER ""
ISRC QM4TW2363170
INDEX 01 00:00:00
FILE "08 - Blood And Butter.wav" WAVE
TRACK 08 AUDIO
TITLE "Blood And Butter"
PERFORMER "Caroline Polachek"
REM COMPOSER ""
ISRC QM4TW2347730
INDEX 01 00:00:00
FILE "09 - Hopedrunk Everasking.wav" WAVE
TRACK 09 AUDIO
TITLE "Hopedrunk Everasking"
PERFORMER "Caroline Polachek"
REM COMPOSER ""
ISRC QM4TW2363171
INDEX 01 00:00:00
FILE "10 - Butterfly Net.wav" WAVE
TRACK 10 AUDIO
TITLE "Butterfly Net"
PERFORMER "Caroline Polachek"
REM COMPOSER ""
ISRC QM4TW2363172
INDEX 01 00:00:00
FILE "11 - Smoke.wav" WAVE
TRACK 11 AUDIO
TITLE "Smoke"
PERFORMER "Caroline Polachek"
REM COMPOSER ""
ISRC QM4TW2363173
INDEX 01 00:00:00
FILE "12 - Billions.wav" WAVE
TRACK 12 AUDIO
TITLE "Billions"
PERFORMER "Caroline Polachek"
REM COMPOSER ""
ISRC QM4TW2224701
INDEX 01 00:00:00

Скачать музыку Caroline Polachek - Desire, I Want To Turn Into You (2023) FLAC через торрент

Загрузил: 1 апреля 2024 10:58 Статус: Проверено
Размер: 286.85 MB [Как скачать?]
Раздают: 133 Качают: 177 Скачали: 441
Качество:Lossless
Формат:FLAC
Начало раздачи:01 апреля 2024 в 10:58
Раздает:Скрыт
Друзья! Огромная просьба, оставляйте свои комментарии, если скачали музыку Caroline Polachek - Desire, I Want To Turn Into You (2023) FLAC через торрент бесплатно! Внесите свою лепту в развитие сайта!
Похожие раздачи
Добавить комментарий
Полужирный Наклонный текст Подчеркнутый текст Зачеркнутый текст | Выравнивание по левому краю По центру Выравнивание по правому краю | Вставка смайликов Выбор цвета | Скрытый текст Вставка цитаты Преобразовать выбранный текст из транслитерации в кириллицу Вставка спойлера
Проверить правописание